[MUSIC VIDEO] EVERGLOW – LA DI DA (2020.09.21/MP4/RAR)

Bugs!

General
Complete name : EVERGLOW – LA DI DA [Bugs!].mp4
Format : MPEG-4
Format profile : Base Media / Version 2
Codec ID : mp42 (mp42/mp41)
File size : 1.03 GiB
Duration : 3 min 40 s
Overall bit rate mode : Variable
Overall bit rate : 40.2 Mb/s
Encoded date : UTC 2020-09-21 01:35:54
Tagged date : UTC 2020-09-21 01:38:33
TIM : 00:00:00:00
TSC : 24
TSZ : 1

Video
ID : 1
Format : AVC
Format/Info : Advanced Video Codec
Format profile : Main@L5.1
Format settings : CABAC / 2 Ref Frames
Format settings, CABAC : Yes
Format settings, Reference frames : 2 frames
Codec ID : avc1
Codec ID/Info : Advanced Video Coding
Duration : 3 min 40 s
Bit rate mode : Variable
Bit rate : 39.9 Mb/s
Maximum bit rate : 768 kb/s
Width : 3 840 pixels
Height : 2 160 pixels
Display aspect ratio : 16:9
Frame rate mode : Constant
Frame rate : 24.000 FPS
Color space : YUV
Chroma subsampling : 4:2:0
Bit depth : 8 bits
Scan type : Progressive
Bits/(Pixel*Frame) : 0.200
Stream size : 1.02 GiB (99%)
Language : English
Encoded date : UTC 2020-09-21 01:35:54
Tagged date : UTC 2020-09-21 01:35:54
Color range : Limited
Color primaries : BT.709
Transfer characteristics : BT.709
Matrix coefficients : BT.709
Codec configuration box : avcC

Audio
ID : 2
Format : AAC LC
Format/Info : Advanced Audio Codec Low Complexity
Codec ID : mp4a-40-2
Duration : 3 min 40 s
Source duration : 3 min 40 s
Bit rate mode : Variable
Bit rate : 317 kb/s
Maximum bit rate : 406 kb/s
Channel(s) : 2 channels
Channel layout : L R
Sampling rate : 48.0 kHz
Frame rate : 46.875 FPS (1024 SPF)
Compression mode : Lossy
Stream size : 8.35 MiB (1%)
Source stream size : 8.35 MiB (1%)
Language : English
Encoded date : UTC 2020-09-21 01:35:55
Tagged date : UTC 2020-09-21 01:35:55

DOWNLOAD From : Rapidgator, Uploaded, Katfile, Mexashare, …

Subscribe
Notify of
guest
0 Comments
Inline Feedbacks
View all comments
0
Would love your thoughts, please comment.x
()
x